CUE File... und nun ?


#1

Hallo,

ich habe ein sehr grosses MP3 File bekommen und dazu ein CUE File das in der mitte so aussieht


TRACK 03 AUDIO

TITLE "Penetration"
PERFORMER "Madam"
INDEX 01 16:30:68

TRACK 04 AUDIO

TITLE "Your Lovin'"
PERFORMER "Electric Tease"
INDEX 01 22:39:00

TRACK 05 AUDIO

TITLE "Riding"
PERFORMER "Teimoso feat. Shelly Preston"
INDEX 01 29:17:18

Meine Frage: mit was für einem Programm kann ich das "zerhacken" ?

Mir ist gesagt worden es muss immer ein VON BIS drinnen stehen und nicht wie in meinem Beispiel nur eine INDEX Nummer.

Ich weiss das es nicht genau das richtige Forum für diese Frage hier ist,
jedoch wo sonst findet man so viele die sich mit Mp3s & co so gut auskennen.

Danke schon jetzt
DjSq


#2

Probier es mal mit mp3DirectCut . In dieses Progi lädst Du Deine grosse mp3-Datei. Dann klickst Du auf den Menupunkt "Spezial", "Cue sheet über aktuelle Audiodatei laden".

Dann siehst Du grafisch, wo gemäss Cue File die Schnittpunkte sein müssten. Du kannst die einzelnen Enden auch gleich "probehören".

Schlussendlich kannst Du mit CTRL-T ("Datei", "geteilt speichern") das ganze mp3 in einzelnen Stücken speichern. Die einzelnen mp3 sollten sogar mit einzelnen id3Tags versehen werden.

Gib Bescheid, ob das weiterhalf. :wink:


#3

hi LyricsLover,

VIELEN VIELEN DANK,
das war eine tolle Hilfe.

nicht nur das Progi läuft super sondern auch gleich wie ich was wo einstellen muss hat mir sehr geholfen.

Jetzt muss ich nur noch "spielen" wie ich den Dateinamen richtig vergebe,
wenn ich es nicht hinbgekomme, dann mach ich es halt übers MP3TAG :wink:

Danke
DjSq