[F] Not possible edit/read tag from some mp4 VIDEO file

bug-fixed

#1

Hi!

Sorry for my english, only speak spanish :stuck_out_tongue:

I detect a bug in mp3tag 2.45a (i think).

Descripci贸n of the problem:

When i encode video file with the program badaboom to mp4 (H.264+AAC) is not possible edit tag in mp3tag. If I use itunes i can edit tag of this file without problems. So the problem is of mp3tag.

When i see the videos in mp3tag, mp3tag NOT READ tags and NOT WRITE tags but mp3tag can see the files. If I want edit tag of one mp4 file I obtain this error:


Mp3tag v2.45a

File "D:\Im谩genes\H.264-AAC ENDODED WITH BADABOOM.mp4"
cannot be opened for writing.

Aceptar

Also i can't see the tag in mp3tag but in itunes i can change tag and see tag.

This is a bug? or is one problem of configurati贸n?

thanx you! :slight_smile:


#2
MEDIAINFO:

General
Complete name                    : D:\Im谩genes\H.264-AAC ENDODED WITH BADABOOM.mp4
Format                           : MPEG-4
Format profile                   : Base Media
Codec ID                         : isom
File size                        : 44.8 MiB
Duration                         : 4mn 34s
Overall bit rate                 : 1 368 Kbps
Part/Position                    : 0
Part/Total                       : 0
Track name/Position              : 2
Track name/Total                 : 0
Performer                        : Artista del album
Genre                            : grupo
Encoded date                     : UTC 2009-11-25 23:12:47
Tagged date                      : UTC 2009-11-25 23:12:47
tvsn                             : 0
tves                             : 0
rati                             : (Binary)
stik                             : 0

Video
ID                               : 1
Format                           : AVC
Format/Info                      : Advanced Video Codec
Format profile                   : Main@L2.0
Format settings, CABAC           : Yes
Format settings, ReFrames        : 2 frames
Codec ID                         : avc1
Codec ID/Info                    : Advanced Video Coding
Duration                         : 4mn 34s
Bit rate mode                    : Variable
Bit rate                         : 1 206 Kbps
Maximum bit rate                 : 1 759 Kbps
Width                            : 320 pixels
Height                           : 240 pixels
Display aspect ratio             : 4:3
Frame rate mode                  : Variable
Frame rate                       : 29.970 fps
Minimum frame rate               : 29.412 fps
Maximum frame rate               : 30.303 fps
Resolution                       : 24 bits
Colorimetry                      : 4:2:0
Scan type                        : Progressive
Bits/(Pixel*Frame)               : 0.524
Stream size                      : 39.5 MiB (88%)
Encoded date                     : UTC 2009-11-25 23:12:47
Tagged date                      : UTC 2009-11-25 23:12:47

Audio
ID                               : 2
Format                           : AAC
Format/Info                      : Advanced Audio Codec
Format version                   : Version 4
Format profile                   : LC
Format settings, SBR             : No
Codec ID                         : 40
Duration                         : 4mn 34s
Bit rate mode                    : Variable
Bit rate                         : 157 Kbps
Maximum bit rate                 : 173 Kbps
Channel(s)                       : 2 channels
Channel positions                : L R
Sampling rate                    : 48.0 KHz
Resolution                       : 16 bits
Stream size                      : 5.15 MiB (11%)
Encoded date                     : UTC 2009-11-25 23:12:47
Tagged date                      : UTC 2009-11-25 23:12:47

#3

Can you upload the file (e.g. via drop.io) and send me the link via email?


#4

Hi!

I upload to rapidshare (it is a trailer):

I want send you to your mail but i can't see your mail, sorry :ph34r:
In .rar file there are 2 video files in mp4. The original file (trailer of youtube) and video converted with badaboom program.

More information of these files:

mp3tag works ok with the youtube mp4 original file
mp3tag not work with encoded file ==> not read the tag and not write the tag.
I use the original configurati贸n of mp3tag 3.45a and nothing changed

TagScanner 5.1 build 553 work ok with encoded file.
itunes 9.02 work ok with encoded file.
Tag&Rename 3.5.4 work ok with encoded file (if the file is less 2GB, so in this case ok).

I use windows vista x64 updated until today.
I use badaboom 1.2.1.7 (for CUDA tecnology).

IMPORTANT: If I cut the video file encoded with Boilsoft Video Splitter 5.01 after I CAN edit tag with mp3tag! it's mistery!!

And, I have more files mp4 downloaded of internet and not work with mp3tag (and not encoded with badaboom) but these files are very huge (800MB or more), so i can't send you. However, if you need i can cut the video files and send fragment to you but if i cut these files can be modificated the metadata and hide error? (i don't know).

Say me something if you can repair this bug pliz!!! I want tagger all my mp4 video files for make smart list (1500GB and other tagers are very slow for edit tag name :frowning: for this i want use mp3tag, is more speed!!)

best regards

PS: if you need more things contact me, i help you if you need (if i can) :slight_smile:


#5

One more thing, these 2 files are diferente from the video file of my first post.
The mediainfo data of the badaboom file encoded:

Complete name                    : D:\Downloads\Files_for_test_mp3tag\Video Files\Trailer [HD] YOUTUBE - AVC-AAC-MP4 [BADABOOM ENCODED FILE].mp4
Format                           : MPEG-4
Format profile                   : Base Media
Codec ID                         : isom
File size                        : 15.7 MiB
Duration                         : 30s 418ms
Overall bit rate                 : 4 325 Kbps
Movie name                       : EDIT WITH TAG&RENAME ;)
Album                            : EDIT WITH ITUNES ;)
Part/Position                    : 0
Part/Total                       : 0
Track name/Position              : 0
Track name/Total                 : 0
Performer                        : EDIT WITH TAGSCANNER ;)
Encoded date                     : UTC 2009-12-02 19:12:13
Tagged date                      : UTC 2009-12-02 19:12:13
tvsn                             : 0
tves                             : 0
stik                             : 0

Video
ID                               : 1
Format                           : AVC
Format/Info                      : Advanced Video Codec
Format profile                   : Main@L4.0
Format settings, CABAC           : Yes
Format settings, ReFrames        : 2 frames
Codec ID                         : avc1
Codec ID/Info                    : Advanced Video Coding
Duration                         : 30s 416ms
Bit rate mode                    : Variable
Bit rate                         : 4 188 Kbps
Maximum bit rate                 : 18.9 Mbps
Width                            : 1 920 pixels
Height                           : 1 080 pixels
Display aspect ratio             : 16:9
Original display aspect ratio    : 2.40:1
Frame rate mode                  : Constant
Frame rate                       : 23.976 fps
Resolution                       : 24 bits
Colorimetry                      : 4:2:0
Scan type                        : Progressive
Bits/(Pixel*Frame)               : 0.084
Stream size                      : 15.2 MiB (97%)
Encoded date                     : UTC 2009-12-02 19:12:13
Tagged date                      : UTC 2009-12-02 19:12:13

Audio
ID                               : 2
Format                           : AAC
Format/Info                      : Advanced Audio Codec
Format version                   : Version 4
Format profile                   : LC
Format settings, SBR             : No
Codec ID                         : 40
Duration                         : 30s 418ms
Bit rate mode                    : Variable
Bit rate                         : 132.3 Kbps
Maximum bit rate                 : 205 Kbps
Channel(s)                       : 2 channels
Channel positions                : L R
Sampling rate                    : 44.1 KHz
Resolution                       : 16 bits
Stream size                      : 495 KiB (3%)
Encoded date                     : UTC 2009-12-02 19:12:13
Tagged date                      : UTC 2009-12-02 19:12:13

#6

Hi All,
I have the same problem as described by vvcepheus7. In my case, these are podcat video
in mp4 downloaded via itunes. mp3tag does not see at all the tags inside these podcasts.
Yet, foobar and itunes can see the tags correctly, as well as an other tag software.
Thanks in advance,
Lankou


#7

Florian,

You has seen the video files? you can confirm that this is a bug? or not? In the next versions of mp3tag will be corrected?

thanx you!


#8

Yes, it's already fixed internally.


#9

thanks! Now, I wait for the next beta! :slight_smile:

see you


#10

This is now fixed with the current Development Build Mp3tag v2.45b.


#11

thanks! now work's very fine! :slight_smile: All mp4 files of my library work's fine!

Only one thing, mp3tag now read:

%itunesmediatype% = Unknown

Before update, mp3tag read:

%itunesmediatype% = Movie

But its not problem for me, I can edit for all mp4 now. And Itunes work ok before and now. Furthermore, it is not necessary to put the tag name so that itunes will recognize it as a movie

one million of thanks florian!!
:w00t: :w00t: :laughing: :laughing:


#12

The internal mapping of these values has been changed from iTunes 8 to iTunes 9 and Mp3tag's mapping has been changed accordingly.


#13

I am having this same issue with SOME files I have downloaded from vj-pro.net. Most of them work correctly, but some will give me the same error. Is there a fix?