[hilfe] beim übersetzen freedb


#1

hallo,

wollte das erste mal daten meiner maxi-cd an freedb schicken und bekam als
antwort dies zurück. vielleicht könnte mir einer beim übersetzen helfen,
da ich nicht weiss was da steht...

Your freedb submission was rejected for the following reason:

Discid collision in category misc

Please fix the problem before you resubmit it. Only the first error in your submission was noted - there may be others. If you continue to have trouble, it may be due to a bug in your CD player software. If you suspect this, try acquiring a newer version.

The rejected submission follows:

xmcd

Track frame offsets:

150

26420

50765

Disc length: 884 seconds

Revision: 2

Processed by: cddbd v1.5.1PL2 Copyright © Steve Scherf et al.

Submitted via: EasyCDDAExtractor 9.0.0.1 #
DISCID=1f037203
DTITLE=depeche mode / personal jesus (maxi)
DYEAR=1989
DGENRE=
TTITLE0=personal jesus (holier than thou approach)
TTITLE1=dangerous (sensual mix)
TTITLE2=personal jesus (acoustic)
EXTD=
EXTT0=
EXTT1=
EXTT2=
PLAYORDER=

If you need assistance, please take a look at the FAQ
at http://www.freedb.org/modules.php?name=Sec...rticle&artid=26
If the FAQ doesn't help, send an e-mail to: rejection@freedb.org

Response generated by the CDDB daemon.


#2

Es existiert bereits ein Album mit der ermittelten DiscID. Ich würde es mit einer anderen Kategorie probieren und beim Eintrag auch auf Groß-/Kleinschreibung achten.

Viele Grüße,
Florian