It's possible to Convert a file .cue to .m3u ??

I have a long file .mp3 mixed by me.... for make a split track cd audio (when i burn using imgburn for example) i have simply created this .cue file:

FILE "Dj Diabolik - JumpStyle Vol.1.mp3" MP3
REM FILE-DECODED-SIZE 75:43:11
  TRACK 01 AUDIO
    INDEX 01 00:00:00
  TRACK 02 AUDIO
    INDEX 01 04:34:00
  TRACK 03 AUDIO
    INDEX 01 08:12:00
  TRACK 04 AUDIO
    INDEX 01 12:18:00
  TRACK 05 AUDIO
    INDEX 01 15:18:00
  TRACK 06 AUDIO
    INDEX 01 19:39:00
  TRACK 07 AUDIO
    INDEX 01 22:50:00
  TRACK 08 AUDIO
    INDEX 01 25:59:00
  TRACK 09 AUDIO
    INDEX 01 31:04:00
  TRACK 10 AUDIO
    INDEX 01 34:36:00
  TRACK 11 AUDIO
    INDEX 01 38:58:00
  TRACK 12 AUDIO
    INDEX 01 44:54:00
  TRACK 13 AUDIO
    INDEX 01 48:35:00
  TRACK 14 AUDIO
    INDEX 01 52:07:00
  TRACK 15 AUDIO
    INDEX 01 55:50:00
  TRACK 16 AUDIO
    INDEX 01 61:00:00
  TRACK 17 AUDIO
    INDEX 01 65:07:00
  TRACK 18 AUDIO
    INDEX 01 70:22:00

When i open the mp3 file using, aimp3, the player load automatically the tracks and i can change track like a real cd audio.
I want to obtain the same thing but this time i need to creare a .m3u playlist...... i try to try to upload this my mp3 file on my hosting site (a altervista ftp) and i want to make a simply streaming service.
I have try to use .cue file..... but it's not working...... for working streaming i need to upload a m3u file... but i can't obtain the split tracks.... you can suggest to me some solution if exist ?

Maybe I am not up-to-date with that stuff of streaming, but what I understand from M3U playlist file is ...
"One common use of the M3U file format is creating a single-entry playlist file pointing to a stream on the Internet."
This means ... one M3U list entry points to one single media file.
So there seems no way to offer partially streaming of a big media file by a M3U file list, because there is no support for cue points.
See also: http://en.wikipedia.org/wiki/M3U

There is a standard defined to support 'media segments' ... especially see ...
http://tools.ietf.org/html/draft-pantos-ht...ng-13#section-3

But I assume that you have to split the big file into parts to make each part accessible by a dedicated m3u track list entry.

DD.20140606.2108.CEST

Yeah.. i can split the long mp3 in parts and create a playlist .m3u for every file.... i already know this solution.

sorry but....... starting for a CUE file.... how i can split my large file automatically ?

I have tryout CUETools found by Google..... but i have understand over it's working out......

Read there ...
http://askubuntu.com/questions/27574/how-c...plit-a-mp3-file
http://dtbaker.net/random-linux-posts/spli...le-with-ffmpeg/
https://www.google.com/search?q=split+big+mp3+file

These links are not the best examples on the net, but they let you decide what tool to use, hmm .... well, CUETools seems to do it also.

DD.20140607.1749.CEST

All tools it's appears obtain a SHIT CUTTED FILE!! In this two hours i have try many solution but it's impossible to obtain a PERFECT SPLIT............ all software i tryed add some imperfection on splitted file....... some tools i have try i have founded on soudforge 4 example........ it's all useless tools....

I have just tried this tool ...
http://www.medieval.it/cuesplitter-pc/menu-id-71.html
... with a dummy WAV file of CD length 75:43:11, together with your cue file, and the splitting worked exactly at the frames given by the cue sheet.

Now we have to test it with a mp3 file ... done ... worked.
I have encoded the dummy WAV file with LAME, then split the MP3 file into 18 parts, using your cue file.

The splitter tool is able to create ID3 tags, however it seems that it cannot copy the existing tag values into the new mp3 parts, but I did not verify this behaviour in depth.
Also I did not verify how the original mp3 quality has been inherited too.
You can check this for yourself.

DD.20140607.2050.CEST

CUETools is the best for splitting files. If you're obtaining bad results, then either you're not using it correctly or you have a bad CUE sheet. However, I don't believe CUETools directly supports splitting Mp3 files, so those Mp3s will have to first be decoded to WAV first. You can use lame.exe -d to decode.